Комментарии 0. Часть 1

К нему свободно можно добраться общественным или личным транспортом. Торговый центр «МЕГА» предлагает своим покупателям огромный выбор различной продукции для дома и семьи. Любой, кто зашел в магазин, не останется без покупки и найдет интересующий его товар.

Приезжай, попробуй хлопнуть. Правда, опасаюсь, что сам с пятого этажа эдаким колобком покатисся, Вадимка. Да и не придешь ты.

В 2002 году МА Имидж-Элит признано лучшим модельным агентством на Первой московской международной выставке Подиум Экспо , а в 2007 году признано лучшим модельным агентством на Первом модельном Оскаре России. Конкурсы красоты, фестивали моды, фотоконкурсы, работа моделей на престижных показах, съемках для обложек глянцевых журналов и рекламы — это только верхушка, самая видимая часть того айсберга, который образует и составляет настоящую империю красоты. Поводов для гордости более чем достаточно.

2010 — 2011 Режиссер. Дарина Шмидт Описание : Шестой сезон «Лунтик» 6 Сезон новые серии это четкое разделение добро и зло. Данный мультсериал рассказывает нашим детками, какие поступки поощряются и чем нужно иногда жертвовать, дабы добиться собственной цели.

44.100 Гц 16 бит стерео TOC извлечённого CD Трек | Старт | Длительность | Начальный сектор | Конечный сектор ——————————————————————— 1 | 0:00.00 | 0:12.67 | 0 | 966 2 | 0:12.67 | 4:21.21 | 967 | 20562 3 | 4:34.13 | 3:39.33 | 20563 | 37020 4 | 8:13.46 | 4:06.55 | 37021 | 55525 5 | 12:20.26 | 4:19.03 | 55526 | 74953 6 | 16:39.29 | 5:01.07 | 74954 | 97535 7 | 21:40.36 | 4:32.48 | 97536 | 117983 8 | 26:13.09 | 3:39.30 | 117984 | 134438 9 | 29:52.39 | 4:38.53 | 134439 | 155341 10 | 34:31.17 | 4:42.64 | 155342 | 176555 11 | 39:14.06 | 3:53.31 | 176556 | 194061 12 | 43:07.37 | 4:51.20 | 194062 | 215906 13 | 47:58.57 | 3:47.26 | 215907 | 232957 14 | 51:46.08 | 5:18.69 | 232958 | 256876 15 | 57:05.02 | 3:40.49 | 256877 | 273425 16 | 60:45.51 | 3:45.62 | 273426 | 290362 17 | 64:31.38 | 4:20.19 | 290363 | 309881 18 | 68:51.57 | 4:17.72 | 309882 | 329228 Характеристики диапазона извлечения и сообщения об ошибках Выбранный диапазон Имя файла D:Феликс Луцкий — 2016 — Спасибо, Песня!Феликс Луцкий — Спасибо, Песня!.wav Пиковый уровень 98.9 % Скорость извлечения 4.8 X Качество диапазона 99.9 % CRC теста BA423590 CRC копии BA423590 Копирование. OK Ошибок не произошло AccurateRip: сводка Трек 1 отсутствует в базе данных Трек 2 отсутствует в базе данных Трек 3 отсутствует в базе данных Трек 4 отсутствует в базе данных Трек 5 отсутствует в базе данных Трек 6 отсутствует в базе данных Трек 7 отсутствует в базе данных Трек 8 отсутствует в базе данных Трек 9 отсутствует в базе данных Трек 10 отсутствует в базе данных Трек 11 отсутствует в базе данных Трек 12 отсутствует в базе данных Трек 13 отсутствует в базе данных Трек 14 отсутствует в базе данных Трек 15 отсутствует в базе данных Трек 16 отсутствует в базе данных Трек 17 отсутствует в базе данных Трек 18 отсутствует в базе данных Ни одного трека нет в базе AccurateRip Конец отчёта —- CUETools DB Plugin V2.1.6 CTDB TOCID: t0ApIBAcDZ7JCfCJfIplhopTEhI- disk not present in database Submit result: t0ApIBAcDZ7JCfCJfIplhopTEhI- has been uploaded Закрыть Группа Время и Стекло пресс-служба Читай также: Онлайн-конференция с Надей Дорофеевой: Задай вопрос Сюжет Песни 404 на вечную тему любви раскрывается в вокальной партии солистки группы Нади Дорофеевой, а Позитив своим речитативом рассказывает, как может произойти сбой в работе мужского процессора, когда ты влюблен. Мы долго работали над этим синглом и хотели выпустить новинку в любимом стиле pop/deep house.